View Single Post
Old 21st February 2007, 20:34   #56
bazhef
Junior Member
 
Join Date: Feb 2007
Posts: 1
I can't get Cue Player 0.56 to install.
Each time i download the exe, it gives an error and won't install!!

i have also installed mp3cue.

Maybe i am wrong, but i thought that these programs enabled you to skip through a set and it showed the name of each track in the set that is on the cue sheet.
For example, i have a cd "Global Underground 10"
The cue sheet shows:

PERFORMER "VA"
TITLE "Global Underground 10"
REM Generated by CD-Tag 2.20 - http://www.cdtag.com
FILE "101-va-global_underground_10-retail.mp3" MP3
TRACK 01 AUDIO
TITLE "Two Months Off"
PERFORMER "Underworld"
INDEX 01 00:00:00
TRACK 02 AUDIO
TITLE "Man With The Red Face (Jan Driver Mix)"
PERFORMER "Laurent Garnier"
INDEX 01 05:40:34
TRACK 03 AUDIO
TITLE "Sunset (Bird Of Prey)"
PERFORMER "Fatboy Slim"
INDEX 01 08:39:72
TRACK 04 AUDIO
TITLE "I Cab Feel That"
PERFORMER "Pascal Feos"
INDEX 01 13:32:29
TRACK 05 AUDIO
TITLE "Movin' Thru Your System"
PERFORMER "Jark Prongo"
INDEX 01 16:12:02
TRACK 06 AUDIO
TITLE "Psiko Garden"
PERFORMER "Alex Dolby"
INDEX 01 18:41:09
TRACK 07 AUDIO
TITLE "Air"
PERFORMER "Albion"
INDEX 01 21:57:36
TRACK 08 AUDIO
TITLE "Anomaly (Calling Your Name)"
PERFORMER "Libra Presents Taylor"
INDEX 01 25:22:70
TRACK 09 AUDIO
TITLE "So Damn Beautiful (Amethyst Mix)"
PERFORMER "Polaroid"
INDEX 01 29:41:10
TRACK 10 AUDIO
TITLE "Steel Blue (GUX 2006 Re-Edit)"
PERFORMER "Pako & Frederik"
INDEX 01 33:45:50
TRACK 11 AUDIO
TITLE "I Trance You (Pappa & Gilbey Mix)"
PERFORMER "Gypsy"
INDEX 01 36:18:29
TRACK 12 AUDIO
TITLE "Deep Blue Dream"
PERFORMER "Planisphere"
INDEX 01 39:20:15
TRACK 13 AUDIO
TITLE "You Are Sleeping (Accapella/PQM Meets Luke Chable Vocal Pass)"
PERFORMER "PQM"
INDEX 01 42:58:21
TRACK 14 AUDIO
TITLE "Sexdrive (M & B's Instructor Mix)"
PERFORMER "Private Productions"
INDEX 01 44:10:63
TRACK 15 AUDIO
TITLE "Ride (Mashtronic Remix)"
PERFORMER "Chable & Bonicci"
INDEX 01 48:03:60
TRACK 16 AUDIO
TITLE "Silver Screen Shower Scene (Thin White Duke Remix)"
PERFORMER "Felix Da Housecat"
INDEX 01 53:16:35
TRACK 17 AUDIO
TITLE "Rise'In (Original Vocal Mix)"
PERFORMER "Steve Lawler"
INDEX 01 59:12:66
TRACK 18 AUDIO
TITLE "Honey (Deep Dish Hoojee Dub)"
PERFORMER "Billie Ray Martin"
INDEX 01 61:23:59
TRACK 19 AUDIO
TITLE "Let The Good Times Roll"
PERFORMER "Layo & Bushwacka"
INDEX 01 66:14:56
TRACK 20 AUDIO
TITLE "F.E.A.R. (UNKLE Remix)"
PERFORMER "Ian Brown"
INDEX 01 69:23:59

I have this saved in the same folder as the cd file but when i listen to it i cannot skip throught the cd and the individual tracks are no listed anywhere.

Can anyone please offer me some guidance?
I'm on 5.32 btw
Thanks.
bazhef is offline   Reply With Quote