View Single Post
Old 19th April 2007, 13:02   #62
dslava
Junior Member
 
Join Date: Apr 2007
Location: Israel
Posts: 18
Send a message via ICQ to dslava
this is example of cue-file that doesn't work with this plugin, but work OK with mp3cue or with foobar player. can you please tell me why?
code:
PERFORMER "Depeche Mode"
TITLE "See You"
FILE "dm - see you - cd4 (cdmute18).ape" WAVE
TRACK 01 AUDIO
TITLE "See You (Extended Version)"
PERFORMER "Depeche Mode"
INDEX 00 00:00:00
INDEX 01 00:00:32
TRACK 02 AUDIO
TITLE "Now This is Fun"
PERFORMER "Depeche Mode"
INDEX 00 04:50:61
INDEX 01 04:51:52
TRACK 03 AUDIO
TITLE "Now This is Fun (Extended Version)"
PERFORMER "Depeche Mode"
INDEX 00 08:15:02
INDEX 01 08:17:35


[IMG]http://o.foto.***********/0704/23/fbc43b03aea3t.jpg[/IMG]
dslava is offline   Reply With Quote